Rss

246008id1f_PacRim_Main_Final_Rated_27x40_1Sheet.indd

szabb1

 

Title:………………Pacific rim 3d download

Rate:………………IMDB – 7.7/10

Genre:…………….Action | Adventure | Fantasy

Premiere:………..12 July 2013

Director:…………Guillermo del Toro

Writing credits:..Travis Beacham, Guillermo del To

Language:……….French*, German, Polish, Russian, Italian, Swedish, Spanish, English*,

*languages with full audio support

 

szabb2

 

As a war between humankind and monstrous sea creatures wages on, a former pilot and a trainee are paired up to drive a seemingly obsolete special weapon in a desperate effort to save the world from the apocalypse.

szabb5

 

2623386

 

 

 

 

 

 

 

 

 

szabb6

 

SSD-15272.DNG

 

 

 

 

 

 

SSD-08367.DNG

 

 

 

 

 

 

PACIFIC RIM

 

 

 

 

 

 

szabb7

 

 

General
Unique ID : 186587898874409331725580721819207443688 (0x8C5F85AC71DD11BBB3415E30EF1246E8)
Complete name : Pacific rim 3d – 3d-download.org.mkv
Format : Matroska
Format version : Version 2
File size : 4.47 GiB
Duration : 2h 1mn
Overall bit rate mode : Variable
Overall bit rate : 6 278 Kbps
Movie name : Pacific rim 3d – 3d-download.org.mkv
Encoded date : UTC 2013-07-22 15:03:52
Writing application : mkvmerge v5.7.0 (‘The Whirlwind’) built on Jul 8 2012 20:08:51
Writing library : libebml v1.2.3 + libmatroska v1.3.0

Video
ID : 1
Format : AVC
Format/Info : Advanced Video Codec
Format profile : High@L4.1
Format settings, CABAC : Yes
Format settings, ReFrames : 2 frames
Codec ID : V_MPEG4/ISO/AVC
Duration : 2h 11mn
Bit rate mode : Variable
Bit rate : 5 705 Kbps
Maximum bit rate : 40.0 Mbps
Width : 1 920 pixels
Height : 1 080 pixels
Display aspect ratio : 2.39:1
Frame rate mode : Constant
Frame rate : 23.976 fps
Color space : YUV
Chroma subsampling : 4:2:0
Bit depth : 8 bits
Scan type : Progressive
Bits/(Pixel*Frame) : 0.115
Stream size : 3.96 GiB
Title : Pacific rim 3D
Writing library : x264 core
Default : Yes
Forced : No
Color primaries : BT.709
Transfer characteristics : BT.709
Matrix coefficients : BT.709

Audio
ID : 2
Format : AC-3
Format/Info : Audio Coding 3
Mode extension : CM (complete main)
Format settings, Endianness : Big
Codec ID : A_AC3
Duration : 2h 11mn
Bit rate mode : Constant
Bit rate : 448 Kbps
Channel(s) : 6 channels
Channel positions : Front: L C R, Side: L R, LFE
Sampling rate : 48.0 KHz
Bit depth : 16 bits
Compression mode : Lossy
Stream size : 486 MiB
Title : AC3 5.1 Orginal
Language : English
Default : Yes
Forced : No

Text
ID : 3
Format : UTF-8
Codec ID : S_TEXT/UTF8
Codec ID/Info : UTF-8 Plain Text
Language : French, German, Polish, Russian, Italian, Swedish, Spanish, English,
Default : Yes
Forced : Yes

szabb3

 

  1. Download .zip file.
  2. Extract .zip archive.
  3. Double-click on .torrent file.
  4. Download with your BitTorrent client.
  5. Watch this in your home!

szabb4

 

 

Main link – tinyfileshost.com

main-link2

 

Mirror link – filespeedy.net

mirror-link2

 

Problem with download? Click here!



Comment (1)

  1. alex

    Yea, i finding this 2 hours and i found here!! Thanks!!

Leave a Reply

Your email address will not be published. Required fields are marked *